coor
武林高手

[2015] [其他] [喜剧] [WEB-1080P] 命运手枪/命運手槍 La.Gunguna.2015.SPANISH.ENSUBBED.1080p.AMZN.WEBRip.DD2.0.x264-QOQ 6.08

-->

帖子完整标题:命运手枪/命運手槍 La.Gunguna.2015.SPANISH.ENSUBBED.1080p.AMZN.WEBRip.DD2.0.x264-QOQ 6.08GB




◎译  名 命运手枪 / 命運手槍(台)
◎片  名 La Gunguna
◎年  代 2015
◎产  地 多米尼加
◎类  别 喜剧 / 动作 / 犯罪
◎语  言 西班牙语
◎IMDb评分 7.2/10 from 348 users
◎IMDb链接 https://www.imdb.com/title/tt4279250
◎豆瓣评分 6.0/10 from 136 users
◎豆瓣链接 https://movie.douban.com/subject/30143785/
◎片  长 87分钟
◎导  演 Ernesto Alemany
◎编  剧 Miguel Yarull
◎主  演 Gerardo Mercedes
      Wasen Ou
      Jalsen Santana
      Isaac Savi?ón
      Vlad Sosa
      Jaime Tirelli
      Janina Irizarry


◎标  签 犯罪 | 多米尼加 | 黑色幽默 | 喜剧 | 2015 | 动作 | 多米尼加电影 | 波多黎各

◎简  介

  一把體積不大卻非常特別的手槍「嫩娃」歷史十分悠久,據說擁有這把手槍的人會遭遇一連串的衰運及不幸,而這是一個關於「嫩娃」遊走於社會低下階層的工人、放高利貸的暴徒、職業賭徒和骨牌玩家等角色的迷人故事。
Video
ID : 1
Format : AVC
Format/Info : Advanced Video Codec
Format profile : [email protected]
Format settings : CABAC / 4 Ref Frames
Format settings, CABAC : Yes
Format settings, Reference frames : 4 frames
Codec ID : V_MPEG4/ISO/AVC
Duration : 1 h 27 min
Bit rate mode : Variable
Bit rate : 9 733 kb/s
Maximum bit rate : 15.0 Mb/s
Width : 1 920 pixels
Height : 800 pixels
Display aspect ratio : 2.40:1
Frame rate mode : Constant
Frame rate : 23.976 (24000/1001) FPS
Color space : YUV
Chroma subsampling : 4:2:0
Bit depth : 8 bits
Scan type : Progressive
Bits/(Pixel*Frame) : 0.264
Stream size : 5.94 GiB (98%)
Default : Yes
Forced : No
Color range : Limited
Color primaries : BT.709
Transfer characteristics : BT.709
Matrix coefficients : BT.709

Audio
ID : 2
Format : E-AC-3
Format/Info : Enhanced AC-3
Commercial name : Dolby Digital Plus
Codec ID : A_EAC3
Duration : 1 h 27 min
Bit rate mode : Constant
Bit rate : 224 kb/s
Channel(s) : 2 channels
Channel layout : L R
Sampling rate : 48.0 kHz
Frame rate : 31.250 FPS (1536 SPF)
Compression mode : Lossy
Stream size : 140 MiB (2%)
Language : Spanish
Service kind : Complete Main
Default : Yes
Forced : No





1 个附件 售价 大小 下载 时间

La.Gunguna.2015.SPANISH.ENSUBBED.1080p.AMZN.WEBRip.DD2.0.x264-QOQ.torrent 0 金币 30.92K 140 次 7天前

#1楼
发帖时间:2019-12-03 23:17:32   |   回复数:2
liyouchai
隐世仙人♂
谢谢楼主分享资源
7天前 #2楼
911degrees
隐世仙人♂
非常感谢,谢谢分享
6天前 #3楼
游客组