coor
武林高手

[2014] [其他] [爱情] [WEB-1080P] 早安公主 The.Misfits.Club.2014.SPANISH.ENSUBBED.1080p.AMZN.WEBRip.DD2.0.x264-QOQ 6.1

-->

帖子完整标题:早安公主 The.Misfits.Club.2014.SPANISH.ENSUBBED.1080p.AMZN.WEBRip.DD2.0.x264-QOQ 6.19GB




◎译  名 早安公主 / Buenos días princesa
◎片  名 El club de los incomprendidos
◎年  代 2014
◎产  地 西班牙
◎类  别 爱情
◎语  言 西班牙语
◎上映日期 2014-12-25(西班牙)
◎IMDb评分 5.7/10 from 1295 users
◎IMDb链接 https://www.imdb.com/title/tt3686272
◎豆瓣评分 0/10 from 0 users
◎豆瓣链接 https://movie.douban.com/subject/25940516/
◎片  长 105分钟
◎导  演 卡洛斯·塞德斯 Carlos Sedes
◎编  剧 拉蒙·坎波斯 Ramón Campos / Cristóbal Garrido
◎主  演 伊万娜·巴克罗 Ivana Baquero
      埃塔娜·桑切斯-吉永 Aitana Sánchez-Gijón
      荣·冈萨雷斯 Yon González
      Patrick Criado
      亚历克斯·马朗尼 àlex Maruny
      Jorge Clemente


◎标  签 西班牙 | 西班牙语电影 | 伊万娜女神 | 青春 | Espa?a | 2016 | 2010s

◎简  介

  暂无相关剧情介绍
Video
ID : 1
Format : AVC
Format/Info : Advanced Video Codec
Format profile : [email protected]
Format settings : CABAC / 4 Ref Frames
Format settings, CABAC : Yes
Format settings, Reference frames : 4 frames
Codec ID : V_MPEG4/ISO/AVC
Duration : 1 h 49 min
Bit rate mode : Variable
Bit rate : 7 870 kb/s
Maximum bit rate : 15.0 Mb/s
Width : 1 920 pixels
Height : 1 080 pixels
Display aspect ratio : 16:9
Frame rate mode : Constant
Frame rate : 23.976 (24000/1001) FPS
Color space : YUV
Chroma subsampling : 4:2:0
Bit depth : 8 bits
Scan type : Progressive
Bits/(Pixel*Frame) : 0.158
Stream size : 6.01 GiB (97%)
Default : Yes
Forced : No
Color range : Limited
Color primaries : BT.709
Transfer characteristics : BT.709
Matrix coefficients : BT.709

Audio
ID : 2
Format : E-AC-3
Format/Info : Enhanced AC-3
Commercial name : Dolby Digital Plus
Codec ID : A_EAC3
Duration : 1 h 49 min
Bit rate mode : Constant
Bit rate : 224 kb/s
Channel(s) : 2 channels
Channel layout : L R
Sampling rate : 48.0 kHz
Frame rate : 31.250 FPS (1536 SPF)
Compression mode : Lossy
Stream size : 175 MiB (3%)
Language : Spanish
Service kind : Complete Main
Default : Yes
Forced : No





1 个附件 售价 大小 下载 时间

The.Misfits.Club.2014.SPANISH.ENSUBBED.1080p.AMZN.WEBRip.DD2.0.x264-QOQ.torrent 0 金币 31.48K 207 次 7天前

#1楼
发帖时间:2019-12-03 22:10:38   |   回复数:1
911degrees
隐世仙人♂
非常感谢,谢谢分享
6天前 #2楼
游客组