coor
武林高手

[更 早] [欧美] [剧情] [BD-4K] 逍遥骑士 Easy.Rider.1969.2160p.BluRay.x265.10bit.SDR.DTS-HD.MA.5.1-SWTYBLZ 39.51GB

-->

帖子完整标题:逍遥骑士 Easy.Rider.1969.2160p.BluRay.x265.10bit.SDR.DTS-HD.MA.5.1-SWTYBLZ 39.51GB




◎译  名 逍遥骑士
◎片  名 Easy Rider
◎年  代 1969
◎产  地 美国
◎类  别 剧情
◎语  言 英语 / 西班牙语
◎上映日期 1969-05-08
◎IMDb评分 7.3/10 from 92753 users
◎IMDb链接 https://www.imdb.com/title/tt0064276
◎豆瓣评分 8.4/10 from 13486 users
◎豆瓣链接 https://movie.douban.com/subject/1297646/
◎片  长 95 分钟
◎导  演 Dennis Hopper
◎编  剧 Peter Fonda / Dennis Hopper / Terry Southern
◎主  演 Peter Fonda
      Dennis Hopper
      Jack Nicholson


◎标  签 美国 | 公路电影 | 公路 | 公路片 | 美国电影 | 摇滚 | 逍遥骑士 | DennisHopper

◎简  介

  比利(丹尼斯·霍珀 Dennis Hopper 饰)和怀特(彼得·方达 Peter Fonda 饰)用一次毒品交易的钱骑着他们的机车上路了,他们的目的地,是新奥尔良的狂欢节。在路上,他们经过了离群索居的波西米亚人群落,短暂逗留的数天里目睹了他们自由放浪但也贫穷困苦的生活。在德克萨斯州,他们仅因为行为举止诡异就被警察关进了监狱,在那里,他们遇见了律师汉森(杰克·尼科尔森 Jack Nicholson 饰),汉森帮助他们逃离了牢狱之灾,他们怂恿汉森同他们一起上路。抵挡不住内心的骚动,汉森同意了。三人来到一个保守的小镇,在那里受尽了居民的白眼。不受欢迎的三人只得露宿荒野,夜里,当地的居民乔装袭击了他们,汉森被打死。比利和怀特虽然震惊,但这一切都没能阻止他们前进的脚步。到达目的地的两人并没有感到喜悦,有的只是无尽的空虚,沮丧的两人打道回府,但令人意外的是,一个卡车司机和他的双杆猎枪使得他们的行程截然而止。
  这是影史上最伟大的公路电影,也是为数众多的公路电影的鼻祖。

◎获奖情况

  第42届奥斯卡金像奖(1970)
  最佳男配角(提名) 杰克·尼科尔森
  最佳原创剧本(提名) 丹尼斯·霍珀 / 特里·索泽恩 / 彼得·方达

  第22届戛纳电影节(1969)
  主竞赛单元 金棕榈奖(提名) 丹尼斯·霍珀
  最佳首作 丹尼斯·霍珀
Video
ID : 1
Format : HEVC
Format/Info : High Efficiency Video Coding
Format profile : Main [email protected]@High
Codec ID : V_MPEGH/ISO/HEVC
Duration : 1 h 35 min
Bit rate : 56.1 Mb/s
Width : 3 840 pixels
Height : 2 076 pixels
Display aspect ratio : 1.85:1
Frame rate mode : Constant
Frame rate : 23.976 (24000/1001) FPS
Color space : YUV
Chroma subsampling : 4:2:0
Bit depth : 10 bits
Bits/(Pixel*Frame) : 0.294
Stream size : 37.5 GiB (95%)
Title : Easy.Rider.1969.2160p.BluRay.x265.10bit.SDR.DTS-HD.MA.5.1-SWTYBLZ
Writing library : x265 3.0ed72af837053:[Windows][GCC 8.2.0][64 bit] 10bit
Encoding settings : cpuid=1111039 / frame-threads=16 / numa-pools=44,44 / wpp / no-pmode / no-pme / no-psnr / no-ssim / log-level=2 / input-csp=1 / input-res=3840x2076 / interlace=0 / total-frames=137472 / level-idc=51 / high-tier=1 / uhd-bd=0 / ref=3 / no-allow-non-conformance / repeat-headers / annexb / aud / hrd / info / hash=0 / no-temporal-layers / no-open-gop / min-keyint=1 / keyint=24 / gop-lookahead=0 / bframes=4 / b-adapt=2 / b-pyramid / bframe-bias=0 / rc-lookahead=25 / lookahead-slices=4 / scenecut=40 / radl=0 / no-splice / no-intra-refresh / ctu=64 / min-cu-size=8 / no-rect / no-amp / max-tu-size=32 / tu-inter-depth=1 / tu-intra-depth=1 / limit-tu=0 / rdoq-level=0 / dynamic-rd=0.00 / no-ssim-rd / signhide / no-tskip / nr-intra=0 / nr-inter=0 / no-constrained-intra / strong-intra-smoothing / max-merge=2 / limit-refs=3 / no-limit-modes / me=1 / subme=2 / merange=57 / temporal-mvp / weightp / no-weightb / no-analyze-src-pics / deblock=0:0 / no-sao / no-sao-non-deblock / rd=3 / no-early-skip / rskip / no-fast-intra / no-tskip-fast / no-cu-lossless / no-b-intra / no-splitrd-skip / rdpenalty=0 / psy-rd=2.00 / psy-rdoq=0.00 / no-rd-refine / no-lossless / cbqpoffs=0 / crqpoffs=0 / rc=crf / crf=20.0 / qcomp=0.60 / qpstep=4 / stats-write=0 / stats-read=0 / vbv-maxrate=160000 / vbv-bufsize=160000 / vbv-init=0.9 / crf-max=0.0 / crf-min=0.0 / ipratio=1.40 / pbratio=1.30 / aq-mode=1 / aq-strength=1.00 / cutree / zone-count=0 / no-strict-cbr / qg-size=32 / no-rc-grain / qpmax=69 / qpmin=0 / no-const-vbv / sar=1 / overscan=0 / videoformat=5 / range=0 / colorprim=2 / transfer=2 / colormatrix=2 / chromaloc=0 / display-window=0 / max-cll=0,0 / min-luma=0 / max-luma=1023 / log2-max-poc-lsb=8 / vui-timing-info / vui-hrd-info / slices=1 / opt-qp-pps / opt-ref-list-length-pps / no-multi-pass-opt-rps / scenecut-bias=0.05 / no-opt-cu-delta-qp / no-aq-motion / no-hdr / no-hdr-opt / no-dhdr10-opt / no-idr-recovery-sei / analysis-reuse-level=5 / scale-factor=0 / refine-intra=0 / refine-inter=0 / refine-mv=0 / refine-ctu-distortion=0 / no-limit-sao / ctu-info=0 / no-lowpass-dct / refine-analysis-type=0 / copy-pic=1 / max-ausize-factor=1.0 / no-dynamic-refine / no-single-sei / no-hevc-aq / qp-adaptation-range=1.00
Default : Yes
Forced : No

Audio #1
ID : 2
Format : DTS XLL
Format/Info : Digital Theater Systems
Commercial name : DTS-HD Master Audio
Codec ID : A_DTS
Duration : 1 h 35 min
Bit rate mode : Variable
Bit rate : 1 884 kb/s
Channel(s) : 6 channels
Channel layout : C L R Ls Rs LFE
Sampling rate : 48.0 kHz
Frame rate : 93.750 FPS (512 SPF)
Bit depth : 16 bits
Compression mode : Lossless
Stream size : 1.26 GiB (3%)
Title : Easy.Rider.1969.2160p.BluRay.x265.10bit.SDR.DTS-HD.MA.5.1-SWTYBLZ
Language : English
Default : Yes
Forced : No

Audio #2
ID : 3
Format : AC-3
Format/Info : Audio Coding 3
Commercial name : Dolby Digital
Codec ID : A_AC3
Duration : 1 h 35 min
Bit rate mode : Constant
Bit rate : 640 kb/s
Channel(s) : 6 channels
Channel layout : L R C LFE Ls Rs
Sampling rate : 48.0 kHz
Frame rate : 31.250 FPS (1536 SPF)
Bit depth : 16 bits
Compression mode : Lossy
Stream size : 437 MiB (1%)
Title : Easy.Rider.1969.2160p.BluRay.x265.10bit.SDR.DTS-HD.MA.5.1-SWTYBLZ
Language : English
Service kind : Complete Main
Default : No
Forced : No

Text #1
ID : 4
Format : UTF-8
Codec ID : S_TEXT/UTF8
Codec ID/Info : UTF-8 Plain Text
Duration : 1 h 29 min
Bit rate : 49 b/s
Count of elements : 904
Stream size : 32.3 KiB (0%)
Title : English-SRT
Language : English
Default : Yes
Forced : No

Text #2
ID : 5
Format : UTF-8
Codec ID : S_TEXT/UTF8
Codec ID/Info : UTF-8 Plain Text
Duration : 1 h 35 min
Bit rate : 50 b/s
Count of elements : 1002
Stream size : 35.1 KiB (0%)
Title : English-SDH-SRT
Language : English
Default : No
Forced : No

Text #3
ID : 6
Format : PGS
Muxing mode : zlib
Codec ID : S_HDMV/PGS
Codec ID/Info : Picture based subtitle format used on BDs/HD-DVDs
Duration : 1 h 23 min
Bit rate : 21.3 kb/s
Count of elements : 1390
Stream size : 12.7 MiB (0%)
Title : English-PGS
Language : English
Default : No
Forced : No

Text #4
ID : 7
Format : PGS
Muxing mode : zlib
Codec ID : S_HDMV/PGS
Codec ID/Info : Picture based subtitle format used on BDs/HD-DVDs
Duration : 1 h 23 min
Bit rate : 21.3 kb/s
Count of elements : 1390
Stream size : 12.7 MiB (0%)
Title : English-PGS
Language : English
Default : No
Forced : No

Text #5
ID : 8
Format : PGS
Muxing mode : zlib
Codec ID : S_HDMV/PGS
Codec ID/Info : Picture based subtitle format used on BDs/HD-DVDs
Duration : 1 h 35 min
Bit rate : 27.9 kb/s
Count of elements : 2004
Stream size : 19.0 MiB (0%)
Title : English-SDH-PGS
Language : English
Default : No
Forced : No

Text #6
ID : 9
Format : PGS
Muxing mode : zlib
Codec ID : S_HDMV/PGS
Codec ID/Info : Picture based subtitle format used on BDs/HD-DVDs
Duration : 1 h 23 min
Bit rate : 11.0 kb/s
Count of elements : 1370
Stream size : 6.57 MiB (0%)
Title : Arabic-PGS
Language : Arabic
Default : No
Forced : No

Text #7
ID : 10
Format : PGS
Muxing mode : zlib
Codec ID : S_HDMV/PGS
Codec ID/Info : Picture based subtitle format used on BDs/HD-DVDs
Duration : 1 h 32 min
Bit rate : 13.5 kb/s
Count of elements : 910
Stream size : 8.93 MiB (0%)
Title : Chinese-PGS
Language : Chinese
Default : No
Forced : No

Text #8
ID : 11
Format : PGS
Muxing mode : zlib
Codec ID : S_HDMV/PGS
Codec ID/Info : Picture based subtitle format used on BDs/HD-DVDs
Duration : 1 h 32 min
Bit rate : 15.3 kb/s
Count of elements : 1410
Stream size : 10.1 MiB (0%)
Title : Chinese-PGS
Language : Chinese
Default : No
Forced : No

Text #9
ID : 12
Format : PGS
Muxing mode : zlib
Codec ID : S_HDMV/PGS
Codec ID/Info : Picture based subtitle format used on BDs/HD-DVDs
Duration : 1 h 23 min
Bit rate : 17.8 kb/s
Count of elements : 1334
Stream size : 10.6 MiB (0%)
Title : Croatian-PGS
Language : Croatian
Default : No
Forced : No

Text #10
ID : 13
Format : PGS
Muxing mode : zlib
Codec ID : S_HDMV/PGS
Codec ID/Info : Picture based subtitle format used on BDs/HD-DVDs
Duration : 1 h 23 min
Bit rate : 17.2 kb/s
Count of elements : 1344
Stream size : 10.3 MiB (0%)
Title : Czech-PGS
Language : Czech
Default : No
Forced : No

Text #11
ID : 14
Format : PGS
Muxing mode : zlib
Codec ID : S_HDMV/PGS
Codec ID/Info : Picture based subtitle format used on BDs/HD-DVDs
Duration : 1 h 23 min
Bit rate : 18.4 kb/s
Count of elements : 1026
Stream size : 11.0 MiB (0%)
Title : Danish-PGS
Language : Danish
Default : No
Forced : No

Text #12
ID : 15
Format : PGS
Muxing mode : zlib
Codec ID : S_HDMV/PGS
Codec ID/Info : Picture based subtitle format used on BDs/HD-DVDs
Duration : 1 h 23 min
Bit rate : 19.2 kb/s
Count of elements : 1334
Stream size : 11.5 MiB (0%)
Title : Dutch-PGS
Language : Dutch
Default : No
Forced : No

Text #13
ID : 16
Format : PGS
Muxing mode : zlib
Codec ID : S_HDMV/PGS
Codec ID/Info : Picture based subtitle format used on BDs/HD-DVDs
Duration : 1 h 25 min
Bit rate : 18.1 kb/s
Count of elements : 1056
Stream size : 11.1 MiB (0%)
Title : Finnish-PGS
Language : Finnish
Default : No
Forced : No

Text #14
ID : 17
Format : PGS
Muxing mode : zlib
Codec ID : S_HDMV/PGS
Codec ID/Info : Picture based subtitle format used on BDs/HD-DVDs
Duration : 1 h 27 min
Bit rate : 18.1 kb/s
Count of elements : 1364
Stream size : 11.3 MiB (0%)
Title : French-PGS
Language : French
Default : No
Forced : No

Text #15
ID : 18
Format : PGS
Muxing mode : zlib
Codec ID : S_HDMV/PGS
Codec ID/Info : Picture based subtitle format used on BDs/HD-DVDs
Duration : 1 h 23 min
Bit rate : 22.4 kb/s
Count of elements : 1348
Stream size : 13.4 MiB (0%)
Title : German-PGS
Language : German
Default : No
Forced : No

Text #16
ID : 19
Format : PGS
Muxing mode : zlib
Codec ID : S_HDMV/PGS
Codec ID/Info : Picture based subtitle format used on BDs/HD-DVDs
Duration : 1 h 33 min
Bit rate : 15.5 kb/s
Count of elements : 1104
Stream size : 10.4 MiB (0%)
Title : Greek-PGS
Language : Greek
Default : No
Forced : No

Text #17
ID : 20
Format : PGS
Muxing mode : zlib
Codec ID : S_HDMV/PGS
Codec ID/Info : Picture based subtitle format used on BDs/HD-DVDs
Duration : 1 h 25 min
Bit rate : 18.8 kb/s
Count of elements : 1352
Stream size : 11.5 MiB (0%)
Title : Hungarian-PGS
Language : Hungarian
Default : No
Forced : No

Text #18
ID : 21
Format : PGS
Muxing mode : zlib
Codec ID : S_HDMV/PGS
Codec ID/Info : Picture based subtitle format used on BDs/HD-DVDs
Duration : 1 h 23 min
Bit rate : 20.2 kb/s
Count of elements : 1344
Stream size : 12.1 MiB (0%)
Title : Icelandic-PGS
Language : Icelandic
Default : No
Forced : No

Text #19
ID : 22
Format : PGS
Muxing mode : zlib
Codec ID : S_HDMV/PGS
Codec ID/Info : Picture based subtitle format used on BDs/HD-DVDs
Duration : 1 h 23 min
Bit rate : 21.2 kb/s
Count of elements : 1342
Stream size : 12.7 MiB (0%)
Title : Italian-PGS
Language : Italian
Default : No
Forced : No

Text #20
ID : 23
Format : PGS
Muxing mode : zlib
Codec ID : S_HDMV/PGS
Codec ID/Info : Picture based subtitle format used on BDs/HD-DVDs
Duration : 1 h 33 min
Bit rate : 12.0 kb/s
Count of elements : 1114
Stream size : 7.99 MiB (0%)
Title : Japanese-PGS
Language : Japanese
Default : No
Forced : No

Text #21
ID : 24
Format : PGS
Muxing mode : zlib
Codec ID : S_HDMV/PGS
Codec ID/Info : Picture based subtitle format used on BDs/HD-DVDs
Duration : 1 h 32 min
Bit rate : 11.7 kb/s
Count of elements : 1392
Stream size : 7.81 MiB (0%)
Title : Korean-PGS
Language : Korean
Default : No
Forced : No

Text #22
ID : 25
Format : PGS
Muxing mode : zlib
Codec ID : S_HDMV/PGS
Codec ID/Info : Picture based subtitle format used on BDs/HD-DVDs
Duration : 1 h 32 min
Bit rate : 16.0 kb/s
Count of elements : 1112
Stream size : 10.6 MiB (0%)
Title : Norwegian-PGS
Language : Norwegian
Default : No
Forced : No

Text #23
ID : 26
Format : PGS
Muxing mode : zlib
Codec ID : S_HDMV/PGS
Codec ID/Info : Picture based subtitle format used on BDs/HD-DVDs
Duration : 1 h 23 min
Bit rate : 16.2 kb/s
Count of elements : 1316
Stream size : 9.67 MiB (0%)
Title : Polish-PGS
Language : Polish
Default : No
Forced : No

Text #24
ID : 27
Format : PGS
Muxing mode : zlib
Codec ID : S_HDMV/PGS
Codec ID/Info : Picture based subtitle format used on BDs/HD-DVDs
Duration : 1 h 25 min
Bit rate : 19.0 kb/s
Count of elements : 1138
Stream size : 11.6 MiB (0%)
Title : Portuguese-PGS
Language : Portuguese
Default : No
Forced : No

Text #25
ID : 28
Format : PGS
Muxing mode : zlib
Codec ID : S_HDMV/PGS
Codec ID/Info : Picture based subtitle format used on BDs/HD-DVDs
Duration : 1 h 23 min
Bit rate : 17.2 kb/s
Count of elements : 1344
Stream size : 10.3 MiB (0%)
Title : Portuguese-PGS
Language : Portuguese
Default : No
Forced : No

Text #26
ID : 29
Format : PGS
Muxing mode : zlib
Codec ID : S_HDMV/PGS
Codec ID/Info : Picture based subtitle format used on BDs/HD-DVDs
Duration : 1 h 34 min
Bit rate : 16.2 kb/s
Count of elements : 1396
Stream size : 11.0 MiB (0%)
Title : Slovak-PGS
Language : Slovak
Default : No
Forced : No

Text #27
ID : 30
Format : PGS
Muxing mode : zlib
Codec ID : S_HDMV/PGS
Codec ID/Info : Picture based subtitle format used on BDs/HD-DVDs
Duration : 1 h 23 min
Bit rate : 16.0 kb/s
Count of elements : 1334
Stream size : 9.57 MiB (0%)
Title : Slovenian-PGS
Language : Slovenian
Default : No
Forced : No

Text #28
ID : 31
Format : PGS
Muxing mode : zlib
Codec ID : S_HDMV/PGS
Codec ID/Info : Picture based subtitle format used on BDs/HD-DVDs
Duration : 1 h 25 min
Bit rate : 18.6 kb/s
Count of elements : 1338
Stream size : 11.4 MiB (0%)
Title : Spanish-PGS
Language : Spanish
Default : No
Forced : No

Text #29
ID : 32
Format : PGS
Muxing mode : zlib
Codec ID : S_HDMV/PGS
Codec ID/Info : Picture based subtitle format used on BDs/HD-DVDs
Duration : 1 h 25 min
Bit rate : 21.7 kb/s
Count of elements : 1390
Stream size : 13.2 MiB (0%)
Title : Spanish-PGS
Language : Spanish
Default : No
Forced : No

Text #30
ID : 33
Format : PGS
Muxing mode : zlib
Codec ID : S_HDMV/PGS
Codec ID/Info : Picture based subtitle format used on BDs/HD-DVDs
Duration : 1 h 25 min
Bit rate : 17.9 kb/s
Count of elements : 1092
Stream size : 10.9 MiB (0%)
Title : Swedish-PGS
Language : Swedish
Default : No
Forced : No

Text #31
ID : 34
Format : PGS
Muxing mode : zlib
Codec ID : S_HDMV/PGS
Codec ID/Info : Picture based subtitle format used on BDs/HD-DVDs
Duration : 1 h 34 min
Bit rate : 14.4 kb/s
Count of elements : 942
Stream size : 9.73 MiB (0%)
Title : Thai-PGS
Language : Thai
Default : No
Forced : No

Text #32
ID : 35
Format : PGS
Muxing mode : zlib
Codec ID : S_HDMV/PGS
Codec ID/Info : Picture based subtitle format used on BDs/HD-DVDs
Duration : 1 h 25 min
Bit rate : 18.6 kb/s
Count of elements : 1350
Stream size : 11.4 MiB (0%)
Title : Turkish-PGS
Language : Turkish
Default : No
Forced : No

Menu
00:00:00.000 : en:Chapter 01
00:10:11.402 : en:Chapter 02
00:16:05.589 : en:Chapter 03
00:19:42.848 : en:Chapter 04
00:26:48.898 : en:Chapter 05
00:31:40.565 : en:Chapter 06
00:35:52.650 : en:Chapter 07
00:43:05.040 : en:Chapter 08
00:50:08.672 : en:Chapter 09
00:54:22.217 : en:Chapter 10
01:01:59.674 : en:Chapter 11
01:09:34.545 : en:Chapter 12
01:14:23.459 : en:Chapter 13
01:20:17.604 : en:Chapter 14
01:28:41.816 : en:Chapter 15
01:32:03.351 : en:Chapter 16





1 个附件 售价 大小 下载 时间

Easy.Rider.1969.2160p.BluRay.x265.10bit.SDR.DTS-HD.MA.5.1-SWTYBLZ.torrent 0 金币 99.40K 224 次 7天前

#1楼
发帖时间:2019-12-03 21:53:57   |   回复数:2
jokingcheung
一代宗师
谢谢分享
7天前 #2楼
911degrees
隐世仙人♂
非常感谢,谢谢分享
6天前 #3楼
游客组