conanlcg
超级版主

[更 早] [其他] [剧情] [BD-1080P] 人民英雄 Peoples.Hero.1987.CHINESE.1080p.BluRay.x264.DTS-FGT 7.45GB

-->

帖子完整标题:人民英雄 Peoples.Hero.1987.CHINESE.1080p.BluRay.x264.DTS-FGT 7.45GB




◎译  名 People's Hero / 银行风云(台)
◎片  名 人民英雄
◎年  代 1987
◎产  地 中国香港
◎类  别 剧情 / 动作 / 犯罪
◎语  言 粤语
◎上映日期 1987-12-03
◎IMDb评分 7.1/10 from 264 users
◎IMDb链接 https://www.imdb.com/title/tt0093845
◎豆瓣评分 7.8/10 from 5151 users
◎豆瓣链接 https://movie.douban.com/subject/1304753/
◎片  长 82分钟
◎导  演 尔冬升
◎编  剧 尔冬升 / 李百龄 / 关耀荣
◎主  演 狄龙
      梁朝伟
      梁家辉
      金燕玲
      秦沛
      黄斌
      林保怡
      江道海


◎标  签 尔冬升 | 梁朝伟 | 香港 | 狄龙 | 香港电影 | 梁家辉 | 犯罪 | 金燕玲

◎简  介

  一个平静的下午,神色紧张的青年阿小(梁朝伟 饰)与老妖走进了一家银行,他们为高利贷所迫,计划打劫还债,然而老妖突然病发,阿小慌忙之下泄露歹意,不得不仓促上阵,打伤警卫,将银行职员与顾客扣押为人质。岂料在人质中,居然有一名警方重大通缉犯古何阳(狄龙 饰),古何阳曾击杀警察,为警方所恨之入骨,他本欲逃离港岛,眼下却不得不从阿小手中控制了银行的局面,闻讯赶来的警察们将银行团团包围,古何阳的老对手陈警官(梁家辉 饰)到场,试图与古何阳谈判换得和平收场,但警队众人只想将古击毙。被困的古何阳执意要求带狱中的女友(金燕玲 饰)一同逃走,但是女友真的出现时,紧绷的情势迅速发生了变化……
  本片翻拍自美国影片《热天午后》。

◎获奖情况

  第25届台北金马影展(1988)
  金马奖 最佳男主角(提名) 狄龙
  金马奖 最佳女配角(提名) 金燕玲

  第7届香港电影金像奖(1988)
  最佳男配角 梁朝伟
  最佳男配角(提名) 黄斌
  最佳女配角 金燕玲
Video
ID : 1
Format : AVC
Format/Info : Advanced Video Codec
Format profile : [email protected]
Format settings : CABAC / 4 Ref Frames
Format settings, CABAC : Yes
Format settings, Reference frames : 4 frames
Codec ID : V_MPEG4/ISO/AVC
Duration : 1 h 21 min
Bit rate : 11.5 Mb/s
Width : 1 920 pixels
Height : 1 080 pixels
Display aspect ratio : 16:9
Frame rate mode : Constant
Frame rate : 24.000 FPS
Color space : YUV
Chroma subsampling : 4:2:0
Bit depth : 8 bits
Scan type : Progressive
Bits/(Pixel*Frame) : 0.231
Stream size : 6.59 GiB (88%)
Title : Peoples.Hero.1987.CHINESE.1080p.BluRay.x264.DTS-FGT
Writing library : x264 core 148 r2795M aaa9aa8
Encoding settings : cabac=1 / ref=4 / deblock=1:-2:-2 / analyse=0x3:0x113 / me=umh / subme=9 / psy=1 / psy_rd=1.00:0.15 / mixed_ref=1 / me_range=16 / chroma_me=1 / trellis=2 / 8x8dct=1 / cqm=0 / deadzone=21,11 / fast_pskip=1 / chroma_qp_offset=-3 / threads=24 / lookahead_threads=3 / sliced_threads=0 / nr=0 / decimate=1 / interlaced=0 / bluray_compat=0 / constrained_intra=0 / bframes=3 / b_pyramid=2 / b_adapt=1 / b_bias=0 / direct=3 / weightb=1 / open_gop=0 / weightp=2 / keyint=250 / keyint_min=25 / scenecut=40 / intra_refresh=0 / rc_lookahead=50 / rc=2pass / mbtree=1 / bitrate=11500 / ratetol=1.0 / qcomp=0.60 / qpmin=0 / qpmax=69 / qpstep=4 / cplxblur=20.0 / qblur=0.5 / vbv_maxrate=31250 / vbv_bufsize=31250 / nal_hrd=none / filler=0 / ip_ratio=1.40 / aq=1:1.00
Language : Chinese
Default : Yes
Forced : No

Audio
ID : 2
Format : DTS
Format/Info : Digital Theater Systems
Codec ID : A_DTS
Duration : 1 h 21 min
Bit rate mode : Constant
Bit rate : 1 509 kb/s
Channel(s) : 6 channels
Channel layout : C L R Ls Rs LFE
Sampling rate : 48.0 kHz
Frame rate : 93.750 FPS (512 SPF)
Bit depth : 16 bits
Compression mode : Lossy
Stream size : 885 MiB (12%)
Title : Peoples.Hero.1987.CHINESE.1080p.BluRay.x264.DTS-FGT
Language : Chinese
Default : Yes
Forced : No

Text
ID : 3
Format : UTF-8
Codec ID : S_TEXT/UTF8
Codec ID/Info : UTF-8 Plain Text
Duration : 1 h 18 min
Bit rate : 50 b/s
Count of elements : 1042
Stream size : 29.3 KiB (0%)
Language : English
Default : Yes
Forced : No

Menu
00:00:00.000 : en:Chapter 01
00:04:50.916 : en:Chapter 02
00:13:25.625 : en:Chapter 03
00:20:41.083 : en:Chapter 04
00:26:46.250 : en:Chapter 05
00:34:30.208 : en:Chapter 06
00:40:44.458 : en:Chapter 07
00:46:34.833 : en:Chapter 08
00:52:41.291 : en:Chapter 09
00:57:05.041 : en:Chapter 10
01:05:34.875 : en:Chapter 11
01:13:34.250 : en:Chapter 12





1 个附件 售价 大小 下载 时间

Peoples.Hero.1987.CHINESE.1080p.BluRay.x264.DTS-FGT.torrent 0 金币 37.79K 2030 次 5天前

#1楼
发帖时间:2019-11-09 08:54:19   |   回复数:3
911degrees
隐世仙人♂
非常感谢,谢谢分享
5天前 #2楼
liyouchai
隐世仙人♂
谢谢楼主分享资源
5天前 #3楼
tanchoohoon
武林盟主
感谢楼主的无私分享
5天前 #4楼
游客组